Milli Vanilli Filename

Sledge Bro - Super Mario Wiki, the Mario encyclopedia

Filename: letras/visualizar.php Line Number: 74 NENHUMA LETRA ENCONTRADA A Rádio Institucional Programação Locutores Contato Anuncie Música Letras O que já tocou Pedido de Músicas Entretenimento Promoções ...

(Pop) [CDM] Milli Vanilli - All Or Nothing (The U.S. Mega …

2015/01/07· Milli Vanilli - You Know It True.mid Musical Notes Distribution Given a piece of music, it is interesting to count how many times each of the individual twelve musical notes is played, and understand their relative weight, or importance, in the piece.

Letras de The Reddings - Diário FM

Milli Vanilli Peach as homage to the Adventures of Super Mario Bros. There, I got it right now, you dip. There, I got it right now, you dip. What others are saying

VA - NOW 100 Hits Forgotten 80s (2019) / AvaxHome

2014/01/04· Get YouTube without the ads Working... Skip trial 1 month free Find out why Close How to get in touch with someone after you've met them once already Quyet Trinh Loading... Unsubscribe from Quyet ...

Milli Vanilli - You Know It True.mid Midi file, 53 kB

[Filename: straws.pdf] - Read File Online - Report Abuse THE EARDRUM - Metro Mobile Recording ... illegal campaign contributions, ward boss politics, kingmakers, palm cards ... legislator took his teenage daughter to a Milli Vanilli concert and was shocked by the ...

Скачать торрент (Pop, Synthpop) Milli Vanilli - You …

2017/02/06· Filename C:Users44740DesktopBoney M. & Friends - Top 40 - Boney M. & Friends CD 1.wav Peak level 96.6 % Extraction speed 3.7 X Range quality 100.0 % Test CRC 67D5F364 Copy CRC 67D5F364 Copy OK No errors ...

CORPORATE AND CULTURAL LOGOS - T E X T F I L E S

" Milli Vanilli Peach as homage to Adventures of Super Mario Brothers 3 Peach Amber Harris — "Hey, it still fits!" Milli Vanilli Peach as. Peach by AmberHarrisArt on DeviantArt Amber Harris — "Hey, it still fits!" Milli Vanilli Peach

The Angelic Gospel Singers | Gospel singer, Christian …

2017/11/02· Artist: Milli Vanilli Title Of Album: You Know It's True Release Date: 1989 Location: Germany Label: Arista (ARCD-8592) Genre: Dance, Pop, Hip-Hop Quality: FLAC | lossless (tracks+.cue) Length: 44:12 min ...

8 Best Clara Lille images | Shadowrun, Cyberpunk …

Filename: milli-vanilli.jpg Original Resolution: 1024x1023 File Size: 197.18KB Category: Other Share this Wallpaper! Embedded: Forum Code: Direct URL: (For websites and blogs, use the "Embedded" code) Wallpaper Tags Music ...

Letras de Calvin Harris, Dua Lipa - Diário FM

Milli Vanilli는 - 이부분에 있어서 집고 넘어가야 할 사실이 있다. " you know it's true"는 앨범상에도 그렇고 알려지기에도 Milli Vanilli가 처음 부른것(립싱크였지만)으로 되어있지만, 사실 1987년에 Numarx라는 가수가 낸 싱글 앨범의 곡이었다.

서태지(난 알아요) Vs 밀리바닐리( you know it's true ...

2014/01/26· 50+ videos Play all '80s Sing-Alongs YouTube Music Taylor Dayne - Tell It To My Heart - Duration: 3:44. taylordayne 15,868,286 views 3:44 Milli Vanilli - You Know It's True (Official Video ...

Boss Bass - Super Mario Wiki, the Mario encyclopedia

I just press my own vinyl. I bought a music studio and a distribution plant. Just tired of Clear channel telling me what to listen to! That is why I own all of Anne Murry's albums! Whew and Milli Vanilli, boy were they good!!

SHOUTcast+Winampをったネットラジオ 【OKWAVE】

LETRAS DE Milli Vanilli i'm gonna miss you A Rádio Institucional Programação Locutores Contato Anuncie Música Letras O que já tocou Pedido de Músicas Entretenimento Promoções Notícias Eventos Vídeos Interatividade ...

Milli Vanilli - Desktop Nexus Wallpapers

2013/11/27· Because of a problem deleting long path and filenames I wrote a script which uses robocopy. Copy the source in a batchfile and for %1 use path or …

VA - Top 40 Boney M. Friends - Their Ultimate Top 40 ...

ROM downloads for free, all the classics! News 2019/12/25 A holiday miracle! Re-added CD-i, PCECD, Dreamcast, 3DO, NGCD ISOs. Replaced the GC set with NKit-scrubbed ISOs. Converted nearly all CD sets to CHD format.

How to get in touch with someone after you've met …

Ronnys Pop Show 15 (1990)Artist: Various Artist Album: Ronny's Pop Show 15 Label: CBS. Made in Austria. Catalog #: 466627 2 Style: Electronic, Rock, Latin, Funk / Soul, Pop Year: 1990 Format

Filename: Milli Vanilli - You Know It's True.rar

ANSI: Milli Vanilli logo ods.ans [] 890 outfield.ans [] 7531 stcomand.ans [] 1386 Starfleet Command Logo by Noel Gamboa sttmp.ans [] 692 Star Trek the Motion Picture Logo by Noel Gamboa sttng.ans [] 1505 Star Trek []

8 Best Clara Lille images | Shadowrun, Cyberpunk …

2013/03/25· Milli Vanilli – You Know It's True (but it wasn't) The group Milli Vanilli was very popular (my grandma owned the record album). Come to find out, they lip-synched the whole thing! Milli Vanilli - loved them! Too bad they were a

Kingmakers Daughter Pdf - Free PDF File Sharing

Filename: letras/visualizar.php Line Number: 74 NENHUMA LETRA ENCONTRADA A Rádio Institucional Programação Locutores Contato Anuncie Música Letras O que já tocou Pedido de Músicas Entretenimento Promoções ...

(Pop) [CDM] Milli Vanilli - Keep On Running (CD-Maxi) - …

Filename E:TorrentMilli Vanilli - Keep On Running (CD Single)01 Keep On Running (Club Mix).wav Pre-gap length 0:00:02.00 Peak level 81.7 % Extraction speed 1.9 X Track quality 100.0 % Test CRC 4BC3A0E4 Copy CRC ...

download - edge|emulation

2015/06/18· Milli Vanilli - Baby Dont Forget My Number [03:37] 05. Thompson Twins - Hold Me Now [04:47] 06. Jason Donovan - Sealed With A Kiss [02:31] 07. Bros - Amongst The Pigeons [04:05] 08. Halo James - Could Have Told You

The Angelic Gospel Singers | Gospel singer, Christian …

2013/11/11· Filename: milli-vanilli.jpg Original Resolution: 1024x1023 File Size: 197.18KB Category: Other Share this Wallpaper! Embedded: Forum Code: Direct URL: (For websites and blogs, use the "Embedded" code) Wallpaper Tags Music ...

Milli Vanilli - Desktop Nexus Wallpapers

The Sledge Brothers first appeared in Super Mario Bros. 3, where they replace Hammer Brothers in the Giant Land levels, as well as on the area's map. They first appear in World 4-3. If a Sledge Brother sees Mario or Luigi, it attacks them by throwing sledge hammers at them; additionally, whenever a Sledge Brother jumps and lands on the ground, it …

VA - Ronny's Pop Show 15 (1990) Flac

Filename E:TorrentMilli Vanilli - All Or Nothing (The U.S. Mega Mix)02 Dreams To Remember (Radio Remix).wav Pre-gap length 0:00:02.53 Peak level 79.9 % Extraction speed 1.9 X Track quality 99.9 % Test CRC 6D848E18

100 Hits - 80s Love - 2007 (5CD) — free Download Hi …

A Boss Bass (also called Big Bass) is a giant Cheep Cheep that often patrols the surface of the water. It is also found underwater, [3] where it is called Big Bertha . [4] Boss Basses and Big Berthas are the original "giant" counterpart to the jumping and swimming Cheep Cheeps, respectively, though this role is currently held by Big Cheep Cheep, which is …

FARK.com: (10655612) Home taping ... no, not that ...

2019/08/18· Filename D:EAC ripsVA - NOW 100 Hits Forgotten 80s (2019)02. F.R. David - Words.wav Peak level 87.4 % Extraction speed 1.2 X Track quality 99.9 % Test CRC D0431270 Copy CRC D0431270 Track not present in Copy OK